<
 
Статистика раздачи
Размер:  1.46 GB   |    Зарегистрирован:  1 год 1 месяц   |    Скачан:  9 раз
DL-List: Нет
Сидов:  0 (+45)  [  0 KB/s  ]   Личеров:  0 (+22)  [  0 KB/s  ]   Подробная статистика пиров
 
   
 
 
 
Автор Сообщение

Yagd ®

Пол:

Стаж: 4 года 4 месяца

Сообщений: 14994

Торрент-статистика

- Иллюзия обмана 2 / Now You See Me 2 (2016) TS «Вы еще ничего не видели»- Производство: США / Lionsgate, Summit Entertainment
Жанр: Триллер, Боевик, Комедия
Режиссер: Джон М. Чу
Актеры: Дэниэл Рэдклифф, Лиззи Каплан, Джесси Айзенберг, Марк Руффало, Дэйв Франк, Вуди Харрельсон, Майкл Кейн, Санаа Лэтэn, Генри Ллойд-Хьюз, Джей Чоу
Описание:
«Четыре всадника», команда лучших иллюзионистов мира, снова в сборе! Их «магия» стала еще совершеннее, а враги — опаснее. На сей раз им предстоит спасти свою репутацию и вывести на чистую воду жестокого техномагната…

Возраст: 12+ (зрителям, достигшим 12 лет)
Рейтинг MPAA: PG-13 (детям до 13 лет просмотр нежелателен)
Дата мировой премьеры: 2 июня 2016
Дата премьеры в России: 9 июня 2016, «Централ Партнершип»

Продолжительность: 02:00:46
Качество видео: TS
Перевод: Дублированный
Субтитры: Отсутствуют
Реклама: Отсутствует
Видео: MPEG4, XviD, 720x368 (1.957), 29.970 fps, 1 463 Kbps (0.184 bit/pixel)
Аудио: MP3, 48.0 KHz, 2 ch, 256 Kbps, CBR

Mediainfo&#58;

Формат                                   : AVI
Формат/Информация                        : Audio Video Interleave
Размер файла                             : 1,46 Гбайт
Продолжительность                        : 2 ч. 0 м.
Общий поток                              : 1730 Кбит/сек
Название фильма                          : rustorrents.info
Программа кодирования                    : VirtualDubModRus 1.5.10.2 (build 2542/release)
Библиотека кодирования                   : VirtualDubMod build 2542/release
Видео
Идентификатор                            : 0
Формат                                   : MPEG-4 Visual
Профиль формата                          : Advanced [email protected]
Параметр BVOP формата                    : 2
Параметр QPel формата                    : Нет
Параметр GMC формата                     : Без точки перехода
Параметр матрицы формата                 : Выборочная
Идентификатор кодека                     : XVID
Идентификатор кодека/Подсказка           : XviD
Продолжительность                        : 2 ч. 0 м.
Битрейт                                  : 1463 Кбит/сек
Ширина                                   : 720 пикселей
Высота                                   : 368 пикселей
Соотношение сторон                       : 1,957
Частота кадров                           : 29,970 кадров/сек
Цветовое пространство                    : YUV
Субдискретизация насыщенности            : 4:2:0
Битовая глубина                          : 8 бит
Тип развёртки                            : Прогрессивная
Метод сжатия                             : С потерями
Бит/(Пиксели*Кадры)                      : 0.184
Размер потока                            : 1,23 Гбайт (85%)
Библиотека кодирования                   : XviD 1.2.1 (UTC 2008-12-04)
Аудио
Идентификатор                            : 1
Формат                                   : MPEG Audio
Версия формата                           : Version 1
Профиль формата                          : Layer 3
Режим                                    : Joint stereo
Идентификатор кодека                     : 55
Идентификатор кодека/Подсказка           : MP3
Продолжительность                        : 2 ч. 0 м.
Вид битрейта                             : Постоянный
Битрейт                                  : 256 Кбит/сек
Каналы                                   : 2 канала
Частота                                  : 48,0 КГц
Метод сжатия                             : С потерями
Размер потока                            : 221 Мбайт (15%)
Выравнивание                             : Соединение по промежуткам
Продолжительность промежутка             : 33  мс. (1,00 видеокадр)
Время предзагрузки промежутка            : 504  мс.
Скриншоты:

[generallycorrect.com].t144992.torrent
Торрент: Зарегистрирован   [ 2016-06-24 19:51 ]

Скачать torrent

------------------------------

15 KB

Статус: проверено
Скачан: Скачаны:
Размер: 1.46 GB
Оценка:  - (Голосов: 0)
Поблагодарили: 2  Спасибо   (список)
:
 
[Профиль] [ЛС]
Показать сообщения:    

Текущее время: Сегодня 19:33

Часовой пояс: GMT + 2



Вы не можете начинать темы
Вы не можете отвечать на сообщения
Вы не можете редактировать свои сообщения
Вы не можете удалять свои сообщения
Вы не можете голосовать в опросах
Вы не можете прикреплять файлы к сообщениям
Вы можете скачивать файлы




покупка трафика на сайт